#TITLE:Xuan Vui;
#SUBTITLE:;
#ARTIST:Rapsoul Ft Kenbin;
#TITLETRANSLIT:;
#SUBTITLETRANSLIT:;
#ARTISTTRANSLIT:;
#CREDIT:;
#BANNER:;
#BACKGROUND:;
#LYRICSPATH:;
#CDTITLE:;
#MUSIC:Xuan Vui - Rapsoul ft Kenbin.mp3;
#OFFSET:-0.060;
#SAMPLESTART:104.960;
#SAMPLELENGTH:12.000;
#SELECTABLE:YES;
#BPMS:0.000=142.000;
#STOPS:;
#BGCHANGES:;
// cache tags:
#FIRSTBEAT:16.000;
#LASTBEAT:456.000;
#SONGFILENAME:Songs/Music V.I.P ^_^/xuan vui/Xuan Vui - Rapsoul ft Kenbin.sm;
#HASMUSIC:1;
#HASBANNER:0;
#MUSICLENGTH:196.440;
// end cache tags

//---------------dance-single - ----------------
#NOTES:
     dance-single:
     :
     Hard:
     17:
     1.000,1.000,1.000,0.127,1.000,1157.000,320.000,25.000,0.000,69.000:
0000
0000
0000
0000
,
0000
0000
0000
0000
,
0000
0000
0000
0000
,
0000
0000
0000
0000
,
1000
0000
0000
0001
0000
0000
0010
0000
0100
0000
0001
0000
1000
0100
0000
0000
,
1000
0000
0000
0010
0000
0000
0100
0000
0001
0000
1000
0000
0010
0100
0000
0000
,
0001
0000
0000
0010
0000
0000
1000
0000
0100
0000
0010
0000
1000
0100
0000
0000
,
0001
0000
0000
0010
0000
0000
0100
0000
0001
0000
1000
0000
0010
0001
0000
0000
,
1001
0000
0000
0011
0000
0000
1100
0000
0011
0000
1010
0000
0010
1100
0000
0000
,
0010
0000
0000
0001
0000
0000
0010
0000
1000
0000
0010
0000
0001
0100
0000
0000
,
0010
0000
0000
1000
0000
0000
0001
0000
1000
0000
0010
0000
0000
1000
0000
0000
,
0010
0000
0000
0010
0000
0000
0100
0000
0001
0000
1000
0000
0100
0001
0000
0000
,
1000
0000
0000
0100
0000
0000
0001
0000
0010
0000
0001
0000
0100
1001
0000
0000
,
0100
0000
0000
0010
0000
0000
1000
0000
0010
0000
1000
0000
0001
0110
0000
0000
,
1000
0000
0000
0100
0000
0000
0001
0000
1000
0000
0000
0010
0000
0000
0100
0000
,
0001
0000
0000
0010
0000
0000
1000
0000
0001
0000
0000
0100
0000
0000
0010
0000
,
1000
0001
0100
0010
1000
0010
0100
0001
,
1000
0010
0100
0001
1000
0010
0100
0001
1000
0010
0100
0001
1000
0010
0100
0001
,
1000
0100
0010
0001
1000
0100
0010
0001
1000
0100
0010
0001
1000
0100
0010
0001
1000
0100
0010
0001
1000
0100
0010
0001
1000
0100
0010
0001
1000
0100
0010
0001
,
1100
0000
0000
0000
0000
0000
1000
0000
0100
0000
0001
0000
0010
0001
0000
0000
,
1001
0000
0100
0000
0110
0000
1000
0000
0011
0000
1010
0000
0000
1100
0000
0000
,
1001
0000
0100
0000
1010
0000
1000
0000
0110
0000
1010
0000
0000
0101
0000
0000
,
0011
0000
0010
0000
0110
0000
0001
0000
1010
0000
0110
0000
0000
1010
0000
0000
,
0011
0000
0100
0000
0011
0000
1000
0000
1001
0000
0011
0000
1001
0110
0000
0000
,
1001
0000
0100
0000
0110
0000
0001
0000
1100
0000
0011
0000
0000
0110
0000
0000
,
1100
0000
0010
0000
1001
0000
0001
0000
0110
0000
0011
0000
0000
1010
0000
0000
,
0101
0000
1000
0000
0011
0000
0100
0000
1001
0000
0100
0000
0000
1001
0000
0000
,
1001
0000
0100
0000
0010
0000
0001
0000
1001
0000
0100
0000
0010
0000
0001
0000
1001
0000
0100
0000
0010
0000
0001
0000
1000
0100
0010
0001
1000
0100
0010
0001
,
1100
0001
1100
0010
0011
1000
0101
0010
,
1010
0001
1100
0010
1001
0100
1010
0001
,
0101
0010
1010
0001
0110
0010
0110
0001
,
0101
1000
0011
0100
1010
0001
0110
0010
,
1001
0001
1100
0010
0011
1000
1001
0100
,
1010
0001
1010
0001
0101
0010
1010
1000
,
0011
0000
0010
0000
1010
0000
0001
0000
1001
0000
0010
0000
1010
0100
0010
0001
,
1010
0000
0100
0000
0010
0000
0001
0000
0101
0000
0010
0000
0100
0000
1000
0000
0101
0000
0010
0000
0100
0000
1000
0000
0001
0010
0100
1000
0001
0010
0100
1000
,
0011
1000
1011
0100
0010
1000
0111
0100
,
0001
0010
1011
1000
0001
0100
1110
1000
,
0001
0100
1011
1000
1000
0001
1110
0010
,
1000
0001
0111
0010
0001
1000
0111
0010
,
1000
0001
1110
0001
0100
0010
1101
0100
,
0001
0100
1011
0010
0100
0001
1110
0100
,
1000
0001
0111
0100
1000
0100
0111
0001
,
0100
0000
0000
0000
0010
0000
0000
0000
0111
0000
0000
0000
0100
0000
0000
0000
1000
0000
0001
0000
0010
0000
0100
0000
1000
0100
0010
0001
1000
0100
0010
0001
,
1000
0100
0010
0001
1000
0100
0010
0001
1000
0100
0010
0001
0001
0010
0100
1000
,
0001
0010
0100
1000
0001
0010
0100
1000
1000
0100
0010
0001
1000
0100
0010
0001
,
1000
0100
0010
0001
0001
0010
0100
1000
0001
0010
0100
1000
0001
0010
0100
1000
,
1000
0100
0010
0001
1000
0100
0010
0001
1000
0100
0010
0001
0001
0010
0100
0010
,
0001
0010
0100
1000
0001
0010
0100
1000
1000
0100
0010
0100
1000
0100
0010
0001
,
1000
0100
0010
0001
0001
0010
0100
1000
0001
0010
0100
1000
0100
0010
0100
1000
,
1000
0100
0010
0001
1000
0100
0010
0001
0010
0100
0010
0001
0001
0010
0100
1000
,
0100
0000
0010
0000
0001
0000
0010
0000
0100
0000
1000
0000
0100
0000
0010
0000
0001
0000
0010
0000
0100
0000
1000
0000
0001
0010
0100
1000
0001
0010
0100
1000
,
0002
0000
0000
0000
,
1003
0100
0010
0001
1000
0000
0100
0000
0001
0010
0100
1000
0001
0000
0010
0000
,
1000
0100
0010
0001
0010
0100
1000
0100
0010
0001
0010
0100
1000
0100
0010
0001
,
1000
0010
0100
0001
0010
0000
1000
0000
0001
1000
0010
0100
0001
0000
1000
0000
,
0001
1000
0010
0100
0001
1000
0010
0100
0001
1000
0010
0100
0001
1000
0010
0100
,
0001
0010
0001
0010
1100
0000
0001
0000
1000
0100
1000
0100
0011
0000
1000
0000
,
0101
0010
0100
1000
0101
0010
0100
1000
0101
0010
0100
1000
0101
0010
0100
1000
,
0001
0010
0100
0010
0101
0000
0010
0000
1000
0100
0010
0100
1010
0000
0100
0000
,
1010
0000
0100
0000
0010
0000
0001
0000
1010
0000
0100
0000
0010
0000
0001
0000
1010
0000
0100
0000
0010
0000
0001
0000
1000
0001
0100
0010
1000
0001
0100
0010
,
1000
0100
1000
0100
0001
0010
0001
0010
1000
0100
0010
0001
0001
0010
0100
1000
,
0011
0010
1002
1000
0110
0010
1203
1000
,
0011
0001
0321
0100
1100
0001
2130
0100
,
0101
0010
3201
0010
1001
0010
0312
1000
,
0110
0100
1023
1000
1100
0100
2031
0001
,
0200
3002
0320
2003
,
0230
3020
0302
2030
,
0203
3002
0320
2003
,
0230
0000
0000
0000
3000
0000
0000
0000
0301
0010
0100
1000
0001
0010
0100
0010
,
1001
0100
1110
1000
0001
1000
1011
0100
,
1000
0001
1101
0010
0100
0001
1101
0010
,
1000
0010
1011
0001
0010
1000
0111
0001
,
0100
0010
1011
0100
0001
0010
0111
0100
,
0001
0010
1110
0100
0010
1000
1011
0100
,
0010
0001
1101
1000
0010
0001
1101
0100
,
1000
0010
0111
0010
0001
1000
0111
0010
,
0001
0000
1000
0000
1101
0000
0010
0000
1000
0100
0010
0001
1000
0100
0010
0001
,
2000
0000
0000
0000
,
0200
0020
3000
0300
,
1030
0000
0000
0000
0000
0000
0001
0010
1100
0000
1000
0100
0011
0000
0110
0000
,
1001
0000
0000
0000
0000
0000
0001
0001
1010
0000
1000
1000
0101
0000
1100
0000
,
0011
0000
0000
0000
0000
0000
1000
0100
1001
0000
0001
0010
1001
0000
0101
0000
,
1010
0000
0101
0000
1010
0101
1010
0101
,
0000
0000
0110
0000
0000
0000
1000
1000
1110
0000
0001
0001
0111
0000
1110
0000
,
0111
0000
0000
0000
0000
0000
0010
0001
1110
0000
0100
1000
0111
0000
1011
0000
,
1101
0000
0000
0000
0000
0000
1000
0100
1011
0000
0001
0010
1101
0000
0111
0000
,
1110
0000
0000
0101
0000
0000
1010
0000
0110
0000
1001
0000
0110
1001
0000
0000
,
1010
0000
0000
0101
0000
0000
0011
0000
0110
0000
0011
0000
1000
0110
0000
0000
,
1100
0000
0000
1010
0000
0000
0101
0000
0011
0000
1001
0000
0010
0101
0000
0000
,
1001
0000
0000
0110
0000
0000
1010
0000
0101
0000
0011
0000
1000
0110
0000
0000
,
1001
0000
0000
0110
0000
0000
0101
0000
0011
0000
1100
0000
0010
1001
0000
0000
,
1001
0000
0000
0011
0000
0000
1100
0000
0011
0000
1010
0000
0010
1100
0000
0000
,
0011
0000
0000
0011
0000
0000
1010
0000
1100
0000
0110
0000
0001
1100
0000
0000
,
0011
0000
0000
1001
0000
0000
0101
0000
1010
0000
0110
0000
0000
1001
0000
0000
,
0011
0000
0000
1010
0000
0000
0110
0000
1001
0000
1010
0000
0100
1001
0000
0000
,
1001
0100
0010
0101
0010
0100
1001
0100
0011
0100
1001
0100
0010
0101
0010
0100
,
1010
0001
0010
0101
1000
0100
1010
0001
1010
0100
1010
0001
0010
0101
1000
0001
,
1010
0100
0010
0101
1000
0100
0011
1000
0101
0010
0101
1000
0010
1100
0010
0001
,
1010
0100
0010
1100
0001
0010
0101
1000
0011
1000
0101
0010
0101
1010
0100
0010
,
1001
0010
0100
1001
0100
0010
0101
0010
1100
0010
1001
0010
0100
1001
0100
0010
,
0101
1000
0100
1010
0001
0010
0101
1000
0101
0010
0101
1000
0100
1010
0001
1000
,
0101
0010
0100
1010
0001
0010
1100
0001
1010
0100
1010
0001
0100
0011
0100
1000
,
0101
0010
0100
0011
1000
0100
1010
0001
1100
0001
1010
0100
1010
0101
0010
0100
,
1001
0100
0001
0110
1000
0100
1010
0001
1010
0100
0011
1000
0011
0100
0010
1000
,
1001
0100
0010
1001
0100
0010
1100
0001
1100
0010
0101
1000
0100
1010
0001
1000
,
0101
0010
0100
1010
0001
0010
1100
0001
1100
0010
0100
1001
0010
0100
1010
0001
,
1100
0010
1000
0011
1000
0100
1010
0001
1100
0010
1001
0010
1100
0011
0100
1000
,
0101
0010
0100
0011
1000
0100
0110
1000
0011
0100
1010
0100
0001
1100
0010
1000
,
0101
0010
0100
1010
1000
0100
0011
0100
1001
0010
0110
1000
0010
0101
0001
1000
,
1100
0010
0001
1010
0100
0010
1001
0100
0011
0100
1000
0110
0010
0001
0010
0100
,
1010
0001
0010
1001
0100
0010
1100
0001
1100
0010
0100
1010
0100
0001
0110
1000
,
0110
0001
0100
1000
0100
0010
0001
0100
0010
0001
0010
1000
0100
0010
0001
0100
,
1000
0100
0001
0010
1000
0100
0001
0010
1000
0100
0001
0010
1000
0100
0001
0010
,
1000
0000
0000
0000
;

//---------------dance-single - ----------------
#NOTES:
     dance-single:
     :
     Medium:
     9:
     0.812,0.987,1.000,0.143,0.552,875.000,211.000,28.000,0.000,23.000:
0000
0000
0000
0000
,
0000
0000
0000
0000
,
0000
0000
0000
0000
,
0000
0000
0000
0000
,
1000
0000
0000
0001
0000
0000
0010
0000
0100
0000
0001
0000
1000
0100
0000
0000
,
1000
0000
0000
0010
0000
0000
0100
0000
0001
0000
1000
0000
0010
0100
0000
0000
,
0001
0000
0000
0010
0000
0000
1000
0000
0100
0000
0010
0000
1000
0100
0000
0000
,
0001
0000
0000
0010
0000
0000
0100
0000
0001
0000
1000
0000
0010
0001
0000
0000
,
1001
0000
0000
0011
0000
0000
1100
0000
0011
0000
1010
0000
0010
1100
0000
0000
,
0010
0000
0000
0001
0000
0000
0010
0000
1000
0000
0010
0000
0001
0100
0000
0000
,
0010
0000
0000
1000
0000
0000
0001
0000
1000
0000
0010
0000
0000
1000
0000
0000
,
0010
0000
0000
0010
0000
0000
0100
0000
0001
0000
1000
0000
0100
0001
0000
0000
,
1000
0000
0000
0100
0000
0000
0001
0000
0010
0000
0001
0000
0100
0001
0000
0000
,
0100
0000
0000
0010
0000
0000
1000
0000
0010
0000
1000
0000
0001
0100
0000
0000
,
1000
0000
0000
0100
0000
0000
0001
0000
1000
0000
0000
0010
0000
0000
0100
0000
,
0001
0000
0000
0010
0000
0000
1000
0000
0001
0000
0000
0100
0000
0000
0010
0000
,
1000
0001
0100
0010
1000
0010
0100
0001
,
1000
0010
0100
0001
1000
0010
0100
0001
1000
0010
0100
0001
1000
0010
0100
0001
,
2000
0000
0000
0000
,
3011
0000
0000
0000
0000
0000
1000
0000
0100
0000
0001
0000
0010
0001
0000
0000
,
1001
0000
0100
0000
0110
0000
1000
0000
0011
0000
1010
0000
0000
1100
0000
0000
,
1001
0000
0100
0000
1010
0000
1000
0000
0110
0000
1010
0000
0000
0101
0000
0000
,
0011
0000
0010
0000
0110
0000
0001
0000
1010
0000
0110
0000
0000
1010
0000
0000
,
0011
0000
0100
0000
0011
0000
1000
0000
1001
0000
0011
0000
1001
0110
0000
0000
,
1001
0000
0100
0000
0110
0000
0001
0000
1100
0000
0011
0000
0000
0110
0000
0000
,
1100
0000
0010
0000
1001
0000
0001
0000
0110
0000
0011
0000
0000
1010
0000
0000
,
0101
0000
1000
0000
0011
0000
0100
0000
1001
0000
0100
0000
0000
1001
0000
0000
,
2000
0000
0000
0000
0000
0000
0000
0000
0100
0010
0001
0010
0100
0010
0001
0010
,
3100
0001
1100
0010
0011
1000
0101
0010
,
1010
0001
1100
0010
1001
0100
1010
0001
,
0101
0010
1010
0001
0110
0010
0110
0001
,
0101
1000
0011
0100
1010
0001
0110
0010
,
1001
0001
1100
0010
0011
1000
1001
0100
,
1010
0001
1010
0001
0101
0010
1010
1000
,
0011
0000
0010
0000
1010
0000
0001
0000
1001
0000
0010
0000
1000
0100
0010
0001
,
2000
0000
0000
0000
0000
0000
0000
0000
0000
0000
0000
0000
0001
0010
0100
0010
,
3001
1000
0011
0100
0010
1000
0101
0100
,
0001
0010
1010
1000
0001
0100
0110
1000
,
0001
0100
1001
1000
1000
0001
1100
0010
,
1000
0001
0011
0010
0001
1000
0101
0010
,
1000
0001
1010
0001
0100
0010
0101
0100
,
0010
0100
1010
0010
0100
0001
0110
0100
,
1000
0001
0101
0100
1000
0100
0110
0001
,
0100
0000
0010
0000
0101
0000
0100
0000
1000
0001
0010
0100
1000
0100
0010
0001
,
1000
0100
0010
0001
1000
0100
0010
0001
,
1000
0100
0010
0001
1000
0100
0010
0001
,
0001
0010
0100
1000
0001
0010
0100
1000
,
0001
0000
0010
0000
0100
0000
1000
0000
0001
0000
0010
0000
0100
0000
1000
0010
,
0001
0010
0100
1000
0001
0010
0100
1000
1000
0100
0010
0100
1000
0100
0010
0001
,
1000
0100
0010
0001
0001
0010
0100
1000
0001
0010
0100
1000
0100
0010
0100
1000
,
1000
0100
0010
0001
1000
0100
0010
0001
0010
0100
0010
0001
0001
0010
0100
1000
,
0100
0010
0001
0010
0100
1000
0100
0010
0001
0010
0100
1000
0001
0010
0100
1000
,
0002
0000
0000
0000
,
1003
0100
0010
0001
1000
0000
0100
0000
0001
0010
0100
1000
0001
0000
0010
0000
,
1000
0100
0010
0000
0001
0010
0100
0000
1000
0100
0010
0000
0001
0010
0100
0000
,
1000
0010
0100
0001
0010
0000
1000
0000
0001
1000
0010
0100
0001
0000
1000
0000
,
0001
1000
0010
0000
1000
0001
0100
0000
0001
1000
0010
0000
1000
0001
0100
0000
,
0001
0010
0001
0010
1000
0000
0001
0000
1000
0100
1000
0100
0001
0000
1000
0000
,
0001
0010
0100
1000
0001
0010
0100
1000
0001
0010
0100
1000
0001
0010
0100
1000
,
0001
0010
0100
0010
0001
0000
0010
0000
1000
0100
0010
0100
1000
0000
0100
0000
,
1000
0100
0010
0001
1000
0100
0010
0001
1000
0100
0010
0001
1000
0100
0010
0001
,
1000
0000
0000
0000
,
1011
1102
0000
1203
,
0000
0321
0000
2130
,
0000
3201
0000
0312
,
0000
1023
0000
2031
,
0200
3002
0320
2003
,
0230
3020
0302
2030
,
0203
3002
0320
2003
,
0230
0000
0000
0000
3000
0000
0000
0000
0301
0010
0100
1000
0001
0000
0000
0000
,
1001
0100
0110
1000
0001
1000
1100
0100
,
1000
0001
1100
0001
0001
0100
0101
0001
,
1000
0010
1001
0001
0010
1000
0101
0010
,
0100
0010
0011
0100
0100
0010
0110
0100
,
0001
0010
1100
0100
0010
1000
1010
0100
,
0100
0001
1001
1000
0010
1000
1100
0100
,
1000
0010
0011
0010
0001
0001
1100
0010
,
0001
0000
1000
0000
0011
0000
0010
0000
1000
0100
0010
0001
1000
0100
0010
0001
,
2000
0000
0000
0000
,
0200
0020
3000
0300
,
1030
0000
0000
0000
0000
0000
0001
0010
0100
0000
1000
0100
0010
0000
0001
0000
,
1000
0000
0000
0000
0000
0000
0001
0001
0010
0000
1000
1000
0100
0000
1000
0000
,
0001
0000
0000
0000
0000
0000
1000
0100
0001
0000
0001
0010
1000
0000
0100
0000
,
0010
0000
0100
0000
0010
0001
1000
0010
,
0000
0000
0100
0000
0000
0000
1000
1000
0110
0000
0001
0001
0110
0000
1100
0000
,
0011
0000
0000
0000
0000
0000
0010
0001
1100
0000
0100
1000
0011
0000
1010
0000
,
0101
0000
0000
0000
0000
0000
1000
0100
0011
0000
0001
0010
1100
0000
0101
0000
,
1010
0000
0000
0100
0000
0000
0010
0000
1000
0000
0100
0000
0010
0001
0000
0000
,
1000
0000
0000
0100
0000
0000
0010
0000
0001
0000
0010
0000
1000
0010
0000
0000
,
1000
0000
0000
0010
0000
0000
0100
0000
0010
0000
1000
0000
0010
0001
0000
0000
,
0001
0000
0000
0100
0000
0000
1000
0000
0001
0000
0010
0000
1000
0010
0000
0000
,
1000
0000
0000
0010
0000
0000
0001
0000
0010
0000
0100
0000
0010
0001
0000
0000
,
0001
0000
0000
0001
0000
0000
1000
0000
0001
0000
1000
0000
0010
1000
0000
0000
,
0010
0000
0000
0001
0000
0000
0010
0000
1000
0000
0100
0000
0001
1000
0000
0000
,
0001
0000
0000
1000
0000
0000
0100
0000
0010
0000
0010
0000
0000
1000
0000
0000
,
0010
0000
0000
1000
0000
0000
0100
0000
0001
0000
0010
0000
0100
0001
0000
0000
,
1010
0000
0000
0110
0000
0000
0011
0000
1001
0000
0011
0000
0000
1001
0000
0000
,
1100
0000
0000
0110
0000
0000
1001
0000
1001
0000
0011
0000
0000
1010
0000
0000
,
0110
0000
0000
1010
0000
0000
0101
0000
0011
0000
1010
0000
0000
0011
0000
0000
,
1010
0000
0000
0110
0000
0000
0101
0000
0011
0000
1100
0000
1010
1001
0000
0000
,
1100
0000
0000
1100
0000
0000
0110
0000
0011
0000
0101
0000
0000
0110
0000
0000
,
0101
0000
0000
1010
0000
0000
0101
0000
0011
0000
1010
0000
0000
0101
0000
0000
,
0101
0000
0000
1001
0000
0000
0110
0000
0101
0000
1100
0000
0000
0101
0000
0000
,
1100
0000
0000
0011
0000
0000
1001
0000
0101
0000
1100
0000
0101
1010
0000
0000
,
0110
0000
0000
0011
0000
0000
0101
0000
1010
0000
0011
0000
0000
0110
0000
0000
,
1100
0000
0000
1100
0000
0000
0101
0000
0011
0000
0110
0000
0000
1010
0000
0000
,
0101
0000
0000
1010
0000
0000
0110
0000
0011
0000
0000
1010
0000
0000
1100
0000
,
0011
0000
0000
1010
0000
0000
1001
0000
1010
0000
0011
0000
1100
0011
0000
0000
,
1001
0010
0110
0100
1100
0001
1010
0001
,
1001
0010
0100
0010
1001
0100
0010
0100
1001
0010
0100
1000
0011
0100
0001
1000
,
0110
0001
1100
1000
0011
1000
0011
0100
,
1100
0001
0010
1000
0101
0010
1000
0001
1100
0010
0100
1000
0110
0001
0010
1000
,
0001
0010
0100
1000
0100
0010
0001
0010
0100
1000
0100
0010
0001
0010
0100
1000
,
0001
0010
1000
0100
0001
0010
1000
0100
0001
0010
1000
0100
0001
0010
1000
0100
,
0001
0000
0000
0000
;

//---------------dance-single - ----------------
#NOTES:
     dance-single:
     :
     Easy:
     3:
     0.456,0.638,0.102,0.117,0.041,584.000,20.000,23.000,0.000,0.000:
0000
0000
0000
0000
,
0000
0000
0000
0000
,
0000
0000
0000
0000
,
0000
0000
0000
0000
,
1000
0000
0000
0000
,
0001
0000
0000
0000
,
0010
0000
0000
0000
,
0100
0000
0000
0000
,
1001
0000
0000
0000
,
0010
0000
0000
0000
,
0100
0000
0000
0000
,
1000
0000
0000
0000
,
0010
0000
0000
0000
,
0001
0000
0000
0000
,
0010
0000
0000
0100
0000
0000
0001
0000
1000
0000
0000
0010
0000
0000
0100
0000
,
0001
0000
0000
0010
0000
0000
1000
0000
0001
0000
0000
0100
0000
0000
0010
0000
,
1000
0001
1000
0001
,
0100
0010
0100
0010
1000
0001
1000
0001
,
2000
0000
0000
0000
,
3001
0000
0000
0000
0000
0000
1000
0000
0100
0000
0001
0000
0010
0001
0000
0000
,
1000
0000
0000
0000
1000
0000
0000
0000
0001
0000
1000
0000
0000
0001
0000
0000
,
0100
0000
0000
0000
0001
0000
0000
0000
0010
0000
0100
0000
0000
0010
0000
0000
,
0100
0000
0000
0000
0001
0000
0000
0000
0010
0000
0010
0000
0000
0010
0000
0000
,
1000
0000
0000
0000
0010
0000
0000
0000
0001
0000
1000
0000
0001
0100
0000
0000
,
0100
0000
0000
0000
1000
0000
0000
0000
0100
0000
1000
0000
0000
0100
0000
0000
,
0100
0000
0000
0000
0001
0000
0000
0000
0010
0000
0010
0000
0000
1000
0000
0000
,
1000
0000
0000
0000
0001
0000
0000
0000
0100
0000
0010
0000
0000
0100
0000
0000
,
2000
0000
0100
0010
,
3001
0100
0001
1000
0010
0100
0001
0100
,
1000
0001
1000
0010
0100
0001
0010
0100
,
1000
0001
0100
0010
0001
1000
0100
0010
,
0001
1000
0100
0010
0001
0010
0100
0001
,
0010
0100
1000
0001
0100
0010
1000
0001
,
0010
0100
1000
0001
0100
0010
1000
0001
,
0100
0010
1000
0001
0100
1000
0100
0010
,
2000
0000
0000
0000
0100
0010
0001
0010
,
3100
0001
1000
0010
0100
1000
0001
0010
,
0100
1000
0001
0100
0010
1000
0001
0100
,
0010
1000
0001
0100
0010
0010
0001
1000
,
0100
0010
0001
1000
0100
0010
0001
0010
,
0100
0010
0001
1000
0100
0010
0100
1000
,
0001
0100
0010
1000
0001
0100
0010
0010
,
1000
0001
0100
1000
0100
0100
1000
0001
,
1000
1000
0001
0010
0100
0001
0010
0100
,
2000
0000
0000
0000
,
3002
0000
0000
0000
,
0203
0000
0000
0000
,
0320
0000
0000
0000
,
1030
0100
0010
0001
1000
0100
0010
0001
,
1000
0100
0010
0001
1000
0100
0010
0001
,
0001
0010
0100
1000
0001
0010
0100
1000
,
0001
0010
0100
1000
0001
0010
0100
1000
,
0002
0000
0000
0000
,
1003
0010
1000
0000
0001
0100
0001
0000
,
1000
0010
0001
0100
1000
0010
0001
0100
,
1000
0100
0010
0000
0001
0010
0100
0000
,
0001
0010
1000
0100
0001
0010
1000
0100
,
0001
0001
1000
0000
1000
1000
0001
0000
,
0001
0010
0100
1000
0001
0010
0100
1000
,
0001
1000
0100
0000
1000
0001
0010
0000
,
1000
0100
0010
0001
1000
0100
0010
0001
,
1000
0000
0000
0000
,
0001
0001
1000
1000
,
0010
0010
0100
0100
,
0001
0001
1000
1000
,
0010
0010
0100
0100
,
0001
0011
1000
1100
,
0010
0101
0100
1010
,
1000
0011
0001
1100
,
0200
0000
0000
0000
0310
1000
0001
0000
,
0010
0001
0010
1000
0100
0010
0100
0010
,
1000
1000
0010
0001
1000
1000
0100
0100
,
0100
1000
0001
0010
0010
0001
0010
0010
,
1000
1000
0010
1000
0100
0001
0001
0010
,
0010
1000
1000
0010
0100
0001
0100
0001
,
0001
1000
0100
0001
1000
0001
1000
0100
,
0010
1000
1000
0100
0001
1000
1000
1000
,
0001
0100
1000
0001
1000
0100
0010
0001
,
2000
0000
0000
0000
,
0000
0000
0000
0000
,
3001
0000
0000
0001
0100
1000
0010
0001
,
1000
0000
0000
0001
0010
1000
0100
1000
,
0001
0000
0000
1000
0001
0001
1000
0100
,
0010
0000
0100
0000
0010
0001
1000
0010
,
0000
0100
0000
1000
0100
0001
0010
0100
,
1000
0000
0000
0010
0100
0100
0001
0010
,
1000
0000
0000
0000
0000
0000
1000
0100
0010
0000
0001
0010
0100
0000
0001
0000
,
0010
0000
0000
0100
0000
0000
1000
0000
1000
0000
0100
0000
0010
0001
0000
0000
,
2000
0000
0000
0000
0000
0000
0000
3000
,
0002
0000
0000
0000
0000
0000
0000
0003
,
0200
0000
0000
0000
0000
0000
0000
0300
,
0020
0000
0000
0000
0000
0000
0000
0030
,
2002
0000
0000
0000
0000
0000
0000
3003
,
0220
0000
0000
0000
0000
0000
0000
0330
,
0202
0000
0000
0000
0000
0000
0000
0303
,
2020
0000
0000
0000
0000
0000
0000
3030
,
1000
0100
0001
0010
1000
0001
0100
0010
,
1000
0001
0100
0010
0001
1000
0100
0010
,
0001
1000
0100
0010
0001
1000
0100
0010
,
1000
0001
0100
0001
0100
0010
0001
0010
,
0100
1000
0001
0100
0010
1000
0100
0010
,
0001
0100
1000
0001
0100
0010
0001
1000
,
0100
0001
1000
0001
1000
0001
0010
0100
,
1000
0001
0100
0001
0100
0010
1000
0001
,
0100
0010
1000
0001
0010
0100
1000
0001
,
0100
0010
0001
1000
0100
0010
1000
0001
,
0010
0100
1000
0001
0100
0010
1000
0001
,
0100
0010
0001
1000
0001
0100
0010
0001
,
1000
0010
0010
0100
0001
1000
0010
0100
,
1001
1000
0110
0001
0011
0010
1100
0001
,
0110
1000
0001
0100
1000
0010
1000
0001
,
0110
0010
1100
0001
0011
0010
0101
0001
,
2000
0000
0000
0000
,
0000
0000
0000
0000
,
3000
0000
0000
0000
;
